#TITLE:没有像我这样的吗;
#SUBTITLE:;
#ARTIST:Super Junior;
#TITLETRANSLIT:;
#SUBTITLETRANSLIT:;
#ARTISTTRANSLIT:;
#CREDIT:;
#BANNER:w-LOGO.jpg;
#BACKGROUND:w.jpg;
#LYRICSPATH:;
#CDTITLE:Lan.png;
#MUSIC:w.mp3;
#OFFSET:-0.040;
#SAMPLESTART:100.000;
#SAMPLELENGTH:12.000;
#SELECTABLE:YES;
#BPMS:0.000=120.000;
#STOPS:;
#BGCHANGES:;
// cache tags:
#FIRSTBEAT:8.000;
#LASTBEAT:260.000;
#SONGFILENAME:Songs/SDO 2/w/w.sm;
#HASMUSIC:1;
#HASBANNER:1;
#MUSICLENGTH:131.935;
// end cache tags

//---------------dance-single - sky----------------
#NOTES:
     dance-single:
     sky:
     Hard:
     10:
     0.832,1.000,1.000,0.038,0.534,535.000,226.000,5.000,0.000,5.000:

0000
0000
0000
0000
,
0000
0000
0000
0000
,
2000
0000
0000
0000
,
0000
0000
0000
0000
,
3110
0000
0001
0010
0001
0000
0010
0000
0101
0000
0010
0100
0001
0000
1000
0000
,
0101
0000
1000
0001
1000
0000
0100
0000
0011
0000
1000
0100
0001
0000
1000
0000
,
0011
0000
0000
0110
0000
1000
0000
0000
0110
0000
0000
0011
0000
0000
1000
0000
,
0110
0000
0000
0011
0000
0000
1000
0000
0110
0000
0000
1100
0001
0001
0001
0001
,
1101
0000
0000
0110
0000
0000
0011
0000
0100
0010
0100
0010
0100
0010
0100
0010
,
1100
0000
0000
0011
0000
0000
0110
0000
0000
0010
0001
0000
0000
0000
0110
0000
,
1010
0000
0000
0110
0000
0000
0011
0000
0100
0010
0100
0010
0100
0010
0100
0010
,
1100
0000
0010
0000
0101
0000
0010
0000
1100
0000
0010
0000
0101
0001
0001
0001
,
0101
0010
1100
0010
0101
0010
1001
0100
,
0011
0100
1010
0010
0110
0001
1010
0100
,
0011
0100
1010
0010
0110
0001
1010
0001
,
0110
0000
0000
0110
0000
0000
0110
0000
0110
0000
0000
0000
0000
0000
0000
0000
,
1001
0000
0000
0000
0000
0010
0110
0000
,
0011
0000
0000
0100
1000
0011
0000
0000
1100
0000
0000
0000
0110
0000
0000
0000
,
0011
0000
0000
0100
0001
0110
0000
0000
1100
0000
0000
0000
1010
0000
0000
0000
,
1001
0000
0000
0100
0001
0110
0000
0000
0101
0000
0000
0000
1100
0000
0000
0000
,
0110
0000
0000
0010
0001
1010
0000
0000
1100
0000
0000
0000
0110
0000
0000
0000
,
1001
0000
0000
0010
0001
1010
0000
0000
0011
0000
0000
0000
1100
0000
0000
0000
,
0011
0000
0000
0010
0100
1010
0000
0000
1100
0000
0000
0000
0110
0000
0000
0000
,
1010
0000
0000
0000
0011
0110
0011
0110
0011
0000
0000
0000
1100
0000
0110
0000
,
0011
0000
0000
0000
0000
0100
0110
0000
,
1001
0000
0000
0010
0100
1010
0000
0000
0011
0000
0000
0000
1100
0000
0000
0000
,
1001
0000
0000
0100
0010
1001
0000
0000
0101
0000
0000
0000
1010
0000
0000
0000
,
1001
0000
0000
0100
0010
1001
0000
0000
1001
0000
0000
0000
0110
0000
0000
0000
,
0011
0000
0000
0100
1000
0011
0000
0000
0101
0000
0000
0000
1010
0000
0000
0000
,
0011
0000
0000
0010
1000
0101
0000
0000
0011
0000
0000
0000
0110
0000
0110
0000
,
0110
0000
0000
0100
1000
0011
0000
0000
0101
0000
0000
0000
1010
0000
0000
0000
,
0011
0000
0001
0000
1000
0100
1000
0100
1001
0010
0100
0010
1100
0000
1100
1100
,
1101
0001
0001
0001
0110
0100
0100
0100
0001
0001
0001
0001
0110
0010
0010
0010
,
1010
1000
1000
1000
0110
0000
0000
0000
0100
0100
0100
0100
0100
1000
1000
1000
,
1000
0010
0010
0010
0010
1000
1000
1000
1100
0100
0100
0100
0010
0010
0010
0010
,
0110
0000
0001
0000
0110
0000
0001
0000
0110
0000
0001
0000
0110
0001
0001
0001
,
0110
1000
0100
0010
0100
0001
0010
1000
,
0100
0001
0010
1000
0100
0001
0010
1000
,
0110
0001
0110
0001
0110
0001
0110
0001
,
0110
0000
0000
0000
1100
0000
0000
0010
1100
0000
0001
0000
0100
0011
0000
0000
,
0110
0000
0000
0110
0000
0000
0110
0000
0220
0000
0000
0000
0000
0000
0000
0000
,
1331
0100
1100
0010
0101
0010
1100
0010
,
0101
0100
1010
0100
0011
0100
1100
0001
,
0110
1000
0101
0010
1100
0010
0110
0001
,
0110
1000
1100
0010
0101
0010
1100
0001
,
0110
0001
1010
0100
1010
0010
0110
0001
,
1100
0010
1100
0100
1001
0010
0110
0001
,
0110
1000
0101
0010
1100
0100
1000
0110
,
0000
1100
0011
1100
0011
0110
1001
0110
,
0011
0100
1010
0100
0011
0010
0110
0001
,
1100
0010
0101
1000
0110
0001
0110
0011
,
0110
1000
0101
0010
1100
0010
0101
0010
,
1100
0001
0110
0010
1001
0010
0110
0011
,
0110
1000
0101
0010
1100
0010
0011
0010
,
1100
0001
0110
1000
0101
0010
1100
0011
,
0110
0100
1010
0010
0101
0010
1100
0011
,
0000
1100
0011
0110
1001
0101
1010
0110
,
0011
0100
1000
0010
0100
1000
0100
0010
0100
0010
0001
1000
0010
0001
0100
1000
,
0011
0100
0010
0100
0001
0010
1000
0010
0100
0001
0010
0100
0001
1000
0110
0001
,
0110
1000
0010
0100
0001
0010
0100
0010
0100
1000
0010
0100
0010
0100
0001
1000
,
0110
0001
0010
0100
0011
0100
1000
0001
0110
1000
0010
0100
0011
0110
0110
0110
,
0110
1000
0010
0100
0001
0010
0100
0010
0100
1000
0100
0001
0010
0100
0010
0100
,
1000
0100
0011
0100
0010
1000
0001
0100
0010
1000
0100
0010
1001
0100
1000
0010
,
1001
0100
1000
0010
1000
0001
0110
1000
0001
0100
0010
1000
0010
0100
0001
1000
,
0110
0000
0000
0110
0000
0000
0110
0000
0220
0000
0000
0000
0000
0000
0000
0000
,
1331
0000
0000
0000
;
